國配電影社區

 找回密碼
 會員注冊

QQ登錄

用QQ號快速登錄該站

搜索
熱搜: 懸疑
123下一頁
返回列表 發新帖
查看: 20|回復: 17
打印

[稀有音軌] 【國語音軌】經典二戰:中途島之戰 Midway(1976)高品質國配DTSHDMA5.1+AC3 2CH(匹配2:11:28)-百度云下載

 

特級元老

Rank: 16Rank: 16Rank: 16Rank: 16

閱讀權限:
150

36

帖子

420

積分

228

威望
  資源量: 16
Miner量: 20
在線時間
366 小時
注冊時間
2018-9-24
跳轉到指定樓層
樓主
虛花悟 發表于 2018-9-30 23:09 回帖獎勵
經典二戰:中途島之戰 Midway(1976)高品質國配DTSHDMA5.1+AC3 2CH(匹配2:11:28)


    GeneralUnique ID                      : 294478648648001827350715778536891582730 (0xDD8A86557399F76BA31B65B55FDD890A)
Complete name                  : 中途島之戰 Midway(1976) DTS-HDMA 5.1 2:11:28.mka
Format                         : Matroska
Format version                 : Version 4 / Version 2
File size                      : 2.14 GiB
Duration                       : 2 h 11 min
Overall bit rate               : 2 330 kb/s
Encoded date                   : UTC 2018-09-30 13:48:46
Writing application            : mkvmerge v26.0.0 ('In The Game') 64-bit
Writing library                : libebml v1.3.6 + libmatroska v1.4.9

Audio
ID                             : 1
Format                         : DTS
Format/Info                    : Digital Theater Systems
Format profile                 : MA / Core
Codec ID                       : A_DTS
Duration                       : 2 h 11 min
Bit rate mode                  : Variable / Constant
Bit rate                       : 2 328 kb/s / 1 509 kb/s
Channel(s)                     : 6 channels
Channel positions              : Front: L C R, Side: L R, LFE
Sampling rate                  : 48.0 kHz
Frame rate                     : 93.750 FPS (512 SPF)
Bit depth                      : 24 bits
Compression mode               : Lossless / Lossy
Stream size                    : 2.14 GiB (100%)
Language                       : Chinese
Default                        : Yes
Forced                         : No

General
Unique ID                      : 167098476295281288038920845102056508658 (0x7DB5FEF4577059B2000CD0DB2F148CF2)
Complete name                  : 中途島之戰 Midway(1976) AC-3 2CH 2:11:28.mka
Format                         : Matroska
Format version                 : Version 4 / Version 2
File size                      : 421 MiB
Duration                       : 2 h 11 min
Overall bit rate mode          : Constant
Overall bit rate               : 449 kb/s
Encoded date                   : UTC 2018-09-30 13:59:11
Writing application            : mkvmerge v26.0.0 ('In The Game') 64-bit
Writing library                : libebml v1.3.6 + libmatroska v1.4.9

Audio
ID                             : 1
Format                         : AC-3
Format/Info                    : Audio Coding 3
Codec ID                       : A_AC3
Duration                       : 2 h 11 min
Bit rate mode                  : Constant
Bit rate                       : 448 kb/s
Channel(s)                     : 2 channels
Channel positions              : Front: L R
Sampling rate                  : 48.0 kHz
Frame rate                     : 31.250 FPS (1536 SPF)
Bit depth                      : 16 bits
Compression mode               : Lossy
Stream size                    : 421 MiB (100%)
Language                       : Chinese
Service kind                   : Complete Main
Default                        : Yes
Forced                         : No


鏈接: https://pan.baidu.com/s/1ViHCeOYYG-tmFQi97QauXA
備用鏈接: pan.baidu.com/#ID-35000

提取碼:
親愛的游客:查看本帖以下隱藏內容地址或密碼 需先回復:點此快速回復     自動顯隱藏 


查看本帖 所有圖文內容 與 下載 和 附件:

您需要先 登錄     還沒有帳號? 點此  注冊會員    或者:

X

特級元老

Rank: 16Rank: 16Rank: 16Rank: 16

閱讀權限:
150

41

帖子

395

積分

218

威望
  資源量: 2
Miner量: 20
在線時間
1396 小時
注冊時間
2018-4-18
2樓沙發
850772 發表于 2018-9-30 23:14

回帖額外獎勵 +2

中途島之戰 國配
回復

金牌會員 Rank: 8Rank: 8
閱讀權限:
100

97

帖子

115

積分

106

威望
資源量:0  Miner:20

活躍會員貼王之星

 在線:1649時 注冊:17-12-30
3
myf0007 發表于 2018-9-30 23:17

回帖額外獎勵 +2

感謝分享
回復

金牌會員 Rank: 8Rank: 8
閱讀權限:
100

14

帖子

530

積分

272

威望
資源量:0  Miner:20

 在線:1689時 注冊:18-3-27
4
QQB 發表于 2018-9-30 23:49
感謝分享
回復

特級元老

Rank: 16Rank: 16Rank: 16Rank: 16

閱讀權限:
150

47

帖子

365

積分

206

威望
  資源量: 0
Miner量: 20
在線時間
1000 小時
注冊時間
2017-6-8
5
duning 發表于 2018-10-1 00:26
看看歷史片 漲姿勢
回復

特級元老

Rank: 16Rank: 16Rank: 16Rank: 16

閱讀權限:
150

96

帖子

120

積分

108

威望
  資源量: 9
Miner量: 25
在線時間
1665 小時
注冊時間
2018-4-21
6
txt5320 發表于 2018-10-1 00:27
我路過一下
回復

金牌會員 Rank: 8Rank: 8
閱讀權限:
100

50

帖子

350

積分

200

威望
資源量:0  Miner:0

 在線:1244時 注冊:17-12-20
7
QZQ666 發表于 2018-10-1 01:55
感謝分享
回復

特級元老

Rank: 16Rank: 16Rank: 16Rank: 16

閱讀權限:
150

73

帖子

235

積分

154

威望
  資源量: 13
Miner量: 20
在線時間
1494 小時
注冊時間
2018-4-7
8
ace027 發表于 2018-10-1 03:35
樓主哪里找的這些老片高音質音軌,難得啊!
回復

123下一頁
返回列表 發新帖
您需要登錄后才可以回帖 登錄 | 會員注冊

查看系統  本版 積分策略  

QQ|若遇網友內容無意涉及了你權益 聯系Mail 郵:[email protected]|熱門詞搜索統計記錄|站點統計|違規名單|在線反饋或報錯|手機版|國配社區CCVNN



Copyright 2000-2020 © Comsenz™ DZ V3.4®
GMT+8:2019-12-14 5:44:34   Processed 28 Query in 0.0186 second Cache On , GZip On.
社區內資源由譯制配音網友愛好收集,嚴禁任何博眼球的不良或擦邊類
發新主題應驗證手機后, 交流從和諧大度、從容友愛,不要交流任何有害容。 不適反饋@
同時不要發一切上映中國產與引進片(也含要上映的引進片與一切tc嘗鮮等,保護上映與國產)  
若有遇網友內容無意涉及了你任何合法權益請Email聯系以便及時清除,郵件[email protected]
快速回復 返回頂部 返回列表
彩霸王公式一尾中特平