國配電影社區

 找回密碼
 會員注冊

QQ登錄

用QQ號快速登錄該站

搜索
熱搜: 懸疑
1234下一頁
返回列表 發新帖
查看: 29|回復: 27
打印

[稀有] 【稀有】 百度云盤 全網首發 高分懸疑燒腦大片 《超時空來電》.2011.720p.x264.AC3-WOFEI[中英字幕/2.05G]免費下載

特級元老

Rank: 16Rank: 16Rank: 16Rank: 16

閱讀權限:
150

21

帖子

495

積分

258

威望
  資源量: 11
Miner量: 0
在線時間
602 小時
注冊時間
2019-3-14
跳轉到指定樓層
樓主
絕嶺之巔負手笑 發表于 2019-5-6 15:35 回帖獎勵

◎譯  名 來訪者/神秘來電
◎片  名 The Caller
◎年  代 2011
◎國  家 美國
◎類  別 犯罪/懸疑/驚悚
◎拍攝語言英語
◎字  幕 中英字幕/中文字幕/英中字幕/英文字幕  
◎豆瓣評分   7.0
◎下載鏈接 http://bbs.hdbird.com/forum-138-1.html
◎文件格式 X264 + AC3
◎視頻尺寸 1280 x 720
◎文件大小 1CD 2.05GB
◎片  長 91 mins
◎導  演 馬修·帕克希爾 Matthew Parkhill
◎主  演 雷切爾·洛弗熱Rachelle Lefevre
      斯蒂芬·莫耶Stephen Moyer
      路易斯·古斯曼Luis Guzman
      埃德·奎因Ed Quinn
      馬萊斯·阿爾瓦雷斯Marise Alvarez
      考狄利婭·岡薩雷斯Cordelia Gonzalez
      布賴恩·塔斯特Brian Tester 

◎簡  介
       離婚女人瑪麗,不停的接到一個陌生號碼的神秘來電,之后她發現在她住所周圍存在著一股神秘的氣息。在經過一段時候之后,瑪麗發現打神秘電話的主人公來自過去,而且她必須把打電話的人殺死她才可以活下來。但是瑪麗如何殺死一個存在于過去的人呢?而且如果行動失敗瑪麗將會遭遇些什么?

I:\來訪者.720p.中英字幕\來訪者 The.Caller.2011.BluRay.720p.x264.AC3-WOFEI.mkv
   General
      Complete name : I:\來訪者.720p.中英字幕\來訪者 The.Caller.2011.BluRay.720p.x264.AC3-WOFEI.mkv
      Format : Matroska
      File size : 2.03 GiB
      Duration : 1h 31mn
      Overall bit rate : 3 179 Kbps
      Encoded date : UTC 2012-05-17 16:21:13
      Writing application : mkvmerge v3.4.0 ('Rapunzel') 編譯于 May 15 2010 09:38:20
      Writing library : libebml v0.8.0 + libmatroska v0.9.0
   Video #1
      ID : 1
      Format : AVC
      Format/Info : Advanced Video Codec
      Format profile : [email protected]
      Format settings, CABAC : Yes
      Format settings, ReFrames : 4 frames
      Muxing mode : Container [email protected]
      Codec ID : V_MPEG4/ISO/AVC
      Duration : 1h 31mn
      Bit rate : 2 668 Kbps
      Nominal bit rate : 2 759 Kbps
      Width : 1 280 pixels
      Height : 720 pixels
      Display aspect ratio : 16:9
      Frame rate : 24.000 fps
      Resolution : 8 bits
      Colorimetry : 4:2:0
      Scan type : Progressive
      Bits/(Pixel*Frame) : 0.121
      Stream size : 1.70 GiB (84%)
      Writing library : x264 core 120 r2164 da19765
      Encoding settings : cabac=1 / ref=4 / deblock=1:-1:-1 / analyse=0x3:0x113 / me=umh / subme=6 / psy=1 / psy_rd=1.00:0.00 / mixed_ref=1 / me_range=16 / chroma_me=1 / trellis=2 / 8x8dct=1 / cqm=0 / deadzone=21,11 / fast_pskip=1 / chroma_qp_offset=-2 / threads=6 / sliced_threads=0 / nr=0 / decimate=1 / interlaced=0 / bluray_compat=0 / constrained_intra=0 / bframes=3 / b_pyramid=0 / b_adapt=1 / b_bias=0 / direct=3 / weightb=1 / open_gop=0 / weightp=2 / keyint=240 / keyint_min=23 / scenecut=40 / intra_refresh=0 / rc_lookahead=40 / rc=2pass / mbtree=1 / bitrate=2759 / ratetol=1.0 / qcomp=0.60 / qpmin=10 / qpmax=51 / qpstep=4 / cplxblur=20.0 / qblur=0.5 / vbv_maxrate=50000 / vbv_bufsize=50000 / nal_hrd=none / ip_ratio=1.40 / aq=1:1.00
      Language : English
   Audio #2
      ID : 2
      Format : AC-3
      Format/Info : Audio Coding 3
      Codec ID : A_AC3
      Duration : 1h 31mn
      Bit rate mode : Constant
      Bit rate : 448 Kbps
      Channel(s) : 6 channels
      Channel positions : Front: L C R, Surround: L R, LFE
      Sampling rate : 48.0 KHz
      Stream size : 293 MiB (14%)
   Text #3
      ID : 3
      Format : SSA
      Codec ID : S_TEXT/SSA
      Codec ID/Info : Sub Station Alpha
      Title : 中英
   Text #4
      ID : 4
      Format : SSA
      Codec ID : S_TEXT/SSA
      Codec ID/Info : Sub Station Alpha
      Title : 英中
   Text #5
      ID : 5
      Format : UTF-8
      Codec ID : S_TEXT/UTF8
      Codec ID/Info : UTF-8 Plain Text
      Title : 中文
   Text #6
      ID : 6
      Format : UTF-8
      Codec ID : S_TEXT/UTF8
      Codec ID/Info : UTF-8 Plain Text
      Title : 英文

鏈接: https://pan.baidu.com/s/1rOjH6H0WG6aCgMNSeVWcSw
備用鏈接: pan.baidu.com/#ID-71376

提取碼:
親愛的游客:查看本帖以下隱藏內容地址或密碼 需先回復:點此快速回復     自動顯隱藏 



查看本帖 所有圖文內容 與 下載 和 附件:

您需要先 登錄     還沒有帳號? 點此  注冊會員    或者:

X

金牌會員 Rank: 8Rank: 8
閱讀權限:
100

44

帖子

380

積分

212

威望
資源量:0  Miner:20

 在線:806時 注冊:18-11-26
2樓沙發
jiouyu 發表于 2019-5-6 17:16

回帖額外獎勵 +3

沙發,支持一下,謝謝樓主,回復回復
回復

金牌會員 Rank: 8Rank: 8
閱讀權限:
100

10

帖子

550

積分

280

威望
資源量:0  Miner:5

 在線:1647時 注冊:17-11-27
3
ltx607 發表于 2019-5-6 17:24

回帖額外獎勵 +3

超時空來
回復

金牌會員 Rank: 8Rank: 8
閱讀權限:
100

47

帖子

365

積分

206

威望
資源量:17  Miner:20

 在線:726時 注冊:18-11-18
4
lyzxixi 發表于 2019-5-6 17:39
有沒有那么神奇?

評論列表:

神奇的很  詳細 回復↵     發表于: 2019-5-6 17:44
回復

特級元老

Rank: 16Rank: 16Rank: 16Rank: 16

閱讀權限:
150

21

帖子

495

積分

258

威望
  資源量: 11
Miner量: 0
在線時間
602 小時
注冊時間
2019-3-14
5
 樓主| 絕嶺之巔負手笑 發表于 2019-5-6 17:44
lyzxixi 發表于 2019-5-6 17:39
有沒有那么神奇?

神奇的很
回復

特級元老

Rank: 16Rank: 16Rank: 16Rank: 16

閱讀權限:
150

14

帖子

530

積分

272

威望
  資源量: 0
Miner量: 25
在線時間
1274 小時
注冊時間
2018-8-11
6
相識燕歸來 發表于 2019-5-6 19:18
謝謝分享資源
回復

金牌會員 Rank: 8Rank: 8
閱讀權限:
100

54

帖子

330

積分

192

威望
資源量:0  Miner:0

 在線:1018時 注冊:18-7-29
7
tghtt007 發表于 2019-5-6 19:41
沙發,支持一下,
回復

金牌會員 Rank: 8Rank: 8
閱讀權限:
100

33

帖子

435

積分

234

威望
資源量:0  Miner:20

 在線:2035時 注冊:17-9-27
8
decoro 發表于 2019-5-6 22:05
這片子沒看過
回復

1234下一頁
返回列表 發新帖
您需要登錄后才可以回帖 登錄 | 會員注冊

查看系統  本版 積分策略  

QQ|若遇網友內容無意涉及了你權益 聯系Mail 郵:[email protected]|熱門詞搜索統計記錄|站點統計|違規名單|在線反饋或報錯|手機版|國配社區CCVNN



Copyright 2000-2019 © Tencent™ Comsenz DZ V3.4®
GMT+8:2019-12-12 18:30:37   Processed 28 Query in 0.0211 second Cache On , GZip On.
社區內資源由譯制配音網友愛好收集,嚴禁任何博眼球的不良或擦邊類
發新主題應驗證手機后, 交流從和諧大度、從容友愛,不要交流任何有害容。 不適反饋@
同時不要發一切上映中國產與引進片(也含要上映的引進片與一切tc嘗鮮等,保護上映與國產)  
若有遇網友內容無意涉及了你任何合法權益請Email聯系以便及時清除,郵件[email protected]
快速回復 返回頂部 返回列表
彩霸王公式一尾中特平